#TITLE:xorrocientos mil millones;
#SUBTITLE:~AMR original Mix~;
#ARTIST:croove v/s o.O;
#TITLETRANSLIT:;
#SUBTITLETRANSLIT:;
#ARTISTTRANSLIT:;
#CREDIT:;
#BANNER:xorocientos mil millones.png;
#BACKGROUND:xorocientos mil millones-bg.png;
#LYRICSPATH:;
#CDTITLE:xolga.png;
#MUSIC:xorocientos mil millones.mp3;
#OFFSET:-0.314;
#SAMPLESTART:15.460;
#SAMPLELENGTH:12.000;
#SELECTABLE:YES;
#DISPLAYBPM:170.000;
#BPMS:0.000=174.000;
#STOPS:;
#BGCHANGES:;
// cache tags:
#FIRSTBEAT:0.000;
#LASTBEAT:296.000;
#SONGFILENAME:Songs/Chilean Keyboard Megapack 3/(AMR) xorocientos mil millones/xorocientos mil millones.sm;
#HASMUSIC:1;
#HASBANNER:1;
#MUSICLENGTH:104.515;
// end cache tags

//---------------dance-single - ----------------
#NOTES:
     dance-single:
     :
     Challenge:
     11:
     1.000,1.000,1.000,0.048,0.799,666.000,117.000,5.000,0.000,3.000:
1000
0000
0010
0100
0001
0000
1000
0100
0000
0100
0000
0010
0001
0000
0100
0010
,
0100
0000
0100
0001
0100
0000
0001
1000
0000
0100
0000
0010
0001
0000
0001
1000
,
0001
0000
2000
0000
3100
0000
0100
0001
0000
0100
0000
1000
0010
0000
0010
0100
,
0010
0000
1000
0000
0001
0000
0010
1000
0000
0010
0000
0100
0010
0000
0011
0000
,
0011
1000
0000
1000
0000
1000
0000
1000
,
0000
1000
0000
1000
0000
1000
0000
1011
,
0011
1000
0000
1000
0000
1000
0000
1011
,
0011
0000
1000
0000
0011
0000
1000
0000
0000
0000
1000
0000
0001
0000
1000
0001
,
1100
0010
0001
1000
0010
0100
0001
1000
,
0100
0010
0100
0010
0001
0100
0010
1000
,
0010
0001
0010
1000
0100
0010
0100
0001
,
0100
1000
0010
0100
1001
0100
1001
0000
,
0010
1000
0001
0010
1000
0001
0100
1000
,
0001
0100
1000
0100
0010
0001
0100
0010
,
1000
0100
0010
0001
1000
0100
0010
0001
,
1000
0000
0100
0000
0001
0000
0010
0000
0110
0000
0001
0000
0110
1000
0001
0000
,
1000
0001
1100
0001
1000
0001
0110
1000
,
0001
1000
0101
0010
0001
0100
1010
0100
,
0001
0010
0110
1000
0100
1000
1100
0010
,
0001
1000
1001
0100
0010
1000
1001
0100
,
0010
0001
1001
0100
0001
0010
0110
0100
,
1000
0010
0101
0010
0100
0001
1001
0010
,
1000
0100
0011
0100
1000
0100
0011
0100
,
0010
0000
0100
0000
1100
0001
0010
0000
1001
0000
0100
0000
0110
0000
0000
0000
,
1001
0000
0010
0000
0100
0000
0000
1000
0000
0010
0000
0100
0001
0000
0010
0000
,
0000
0000
1100
0000
0010
0001
0010
0000
0101
0000
0010
1000
0000
0010
1000
0100
,
0010
0000
0001
0000
0100
0000
0000
0010
0000
1000
0000
0100
0010
0000
0001
0000
,
0000
0000
1000
0000
0010
0000
0000
0000
0110
0000
1000
0010
0000
1000
0010
1000
,
0110
0000
0011
0000
1100
0000
0000
0011
0000
0110
0000
1100
1100
0000
0011
0000
,
0000
0000
1010
0000
0101
0000
0000
0110
0000
0011
0000
0110
0110
0000
1001
0000
,
0000
0000
0110
0000
1001
0000
0000
0011
0000
1100
0000
0011
1001
0000
0101
0000
,
0000
0000
1010
0000
1001
0000
0000
0110
0000
1100
0000
0011
0101
0000
1001
0000
,
1001
0000
0100
0000
0010
0000
0000
0001
0000
1000
0010
0100
0001
1000
0100
0000
,
0011
0000
0100
0000
1000
0000
1100
0001
0000
0100
0010
1000
0100
0010
0001
0010
,
1100
0000
0010
0000
0001
0000
1010
0100
0000
0010
0100
0001
1000
0100
0010
0001
,
1001
0000
0010
0000
0100
0000
0101
1000
0000
1000
0100
0010
0001
1000
0100
0000
,
0011
0000
0100
0000
0010
0000
1100
0001
0000
0001
0010
0100
1000
0001
0100
0010
,
0110
0000
1000
0000
0100
0000
0011
0100
0000
0010
0100
0001
1000
0100
0010
0001
,
0101
0000
0010
0000
0100
0000
0011
0100
0000
0100
0010
0001
0100
0010
0100
0001
,
1100
0000
0011
0000
0101
0000
1010
0000
1100
0010
1100
0010
1100
0010
1100
0010
,
1100
0010
0001
0100
0010
0100
0001
1000
,
0001
0100
0010
1000
0100
0010
0100
1000
,
0001
1000
0100
0001
0010
1000
0100
0001
,
1000
0100
0010
1000
0100
0010
0001
0010
,
1000
0010
0001
0100
0010
1000
0100
0010
,
0100
1000
0001
1000
0100
0001
0010
1000
,
0001
0010
0100
0001
0100
0001
1000
0100
,
0010
0001
0010
0100
2000
0000
0000
0000
,
3101
0000
0001
0000
0001
0000
0000
0001
0000
0001
0000
0001
0001
0000
0001
0000
,
0001
0000
0001
0000
0001
0000
0000
0001
0000
0001
0000
0001
0001
0000
0001
0000
,
0001
0000
0001
0000
0001
0000
0000
0001
0000
0001
0000
0001
0001
0000
0001
0000
,
0001
0000
0001
0000
0001
0000
0000
1000
0001
0000
0001
0000
0001
0000
0010
0100
,
1001
0100
1000
0010
1000
0001
1000
0100
1000
0010
1000
0001
1000
0010
1000
0100
,
1000
0010
1000
0100
1000
0010
1000
0001
1000
0100
1000
0010
1000
0001
1000
0010
,
2000
0000
0000
3000
0100
0000
0000
0000
1000
0000
0000
0000
0010
0000
0000
0000
1000
0000
0000
0000
0001
0000
0000
0000
1000
0000
0000
0000
0100
0000
0000
0000
1000
0000
0000
0000
0100
0000
0000
0000
1000
0000
0000
0000
0010
0000
0000
0000
1000
0000
0000
0000
0001
0000
0000
0000
1000
0000
0000
0000
0010
0000
0000
0000
,
1000
0100
1000
0010
1000
0100
1000
0010
1000
0001
1000
0010
1000
0010
1000
0100
,
1000
0100
0011
0100
0011
1000
0001
0110
,
0100
1010
0101
0010
0101
0010
1100
0110
,
0001
0010
1100
0010
0100
0011
1000
0010
,
0101
0001
0100
1010
0100
0011
0110
1100
,
0010
1000
0110
0100
0011
0010
0100
1001
,
0010
1010
0001
0110
0101
0010
0101
1001
,
0100
1000
1100
0010
0100
0011
0010
0100
,
0101
0000
0010
0000
0001
0000
1010
0000
0100
0000
0011
0000
1100
0001
0110
0001
,
0110
0000
1000
0100
1000
0000
0001
0100
0001
0000
1000
0010
1000
0000
0001
0010
,
0001
0000
0100
0001
0100
0000
0010
1000
0010
0000
0010
0001
0010
0000
0100
1000
,
0100
0000
0100
0001
0100
0000
1000
0001
1000
0000
0001
1000
0001
0000
0010
0100
,
0001
0000
0010
0100
1000
0000
0100
0000
0000
0001
0000
0000
0100
0000
0000
0010
,
0001
0000
0000
0001
0100
0000
0000
0010
0100
0000
0000
0010
1000
0000
0000
0100
,
0010
0000
0000
0010
0001
0000
0000
0010
0100
0000
0000
1000
0001
0010
0100
1000
,
0001
0010
0100
1000
0001
0100
0010
1000
0001
0100
0010
1000
0010
0100
0001
1000
,
0010
0100
0001
1000
0100
0010
0100
1000
0001
0100
0010
0100
0001
0100
2000
0100
,
0002
0000
0000
0000
,
0000
0000
0000
0000
,
3003
0000
0000
0000
;
